Doc Scott – Essential Mix 2020-11-28

Biiiig one for us D&B heads!
“The drum & bass legend celebrates 25 years of his label 31 Records. With brand new music from Alix Perez, Chimpo, Skeptical and more.”
Check out other Essential Mixes in the archive and subscribe to the feed to get good music in the future.

Doc Scott – Essential Mix 2020-11-28 download alternatives:
[Rapidgator download]
[Uploaded.net download]

Tracklist:
See DJ Tracklists.

Follow Core News on Facebook, Instagram, ello and Twitter.

Help keeping the site running - Support Core News

3 thoughts on “Doc Scott – Essential Mix 2020-11-28”

  1. Wicked mix! I made a cue sheet, in case anyone needs it:

    PERFORMER “Doc Scott”
    TITLE “Essential Mix”
    FILE “Doc Scott – Essential Mix 2020-11-28” MP3
    TRACK 01 AUDIO
    PERFORMER “Pete Tong”
    TITLE “Doc Scott Essential Mix Intro”
    INDEX 01 00:00:00
    TRACK 02 AUDIO
    PERFORMER “Amotik”
    TITLE “Chatis”
    INDEX 01 01:31:00
    TRACK 03 AUDIO
    PERFORMER “FD”
    TITLE “Bully”
    INDEX 01 03:57:00
    TRACK 04 AUDIO
    PERFORMER “Anile”
    TITLE “DIG 174”
    INDEX 01 06:26:00
    TRACK 05 AUDIO
    PERFORMER “Alix Perez”
    TITLE “Desanka”
    INDEX 01 08:59:00
    TRACK 06 AUDIO
    PERFORMER “Halogenix & Halogenix”
    TITLE “ID”
    INDEX 01 12:06:00
    TRACK 07 AUDIO
    PERFORMER “Tokyo Prose”
    TITLE “Brilliant Corners (ANILE RMX)”
    INDEX 01 13:58:00
    TRACK 08 AUDIO
    PERFORMER “Skeptical”
    TITLE “Rhubarb”
    INDEX 01 16:57:00
    TRACK 09 AUDIO
    PERFORMER “Hyroglifics”
    TITLE “Dog Town”
    INDEX 01 18:49:00
    TRACK 10 AUDIO
    PERFORMER “LSB”
    TITLE “POT SHOT (ANILE RMX)”
    INDEX 01 20:40:00
    TRACK 11 AUDIO
    PERFORMER “DLR & DLR”
    TITLE “Twisted”
    INDEX 01 22:32:00
    TRACK 12 AUDIO
    PERFORMER “Break”
    TITLE “Keepin It Raw (Calyx & Teebee Remix)”
    INDEX 01 25:25:00
    TRACK 13 AUDIO
    PERFORMER “Workforce”
    TITLE “EGO”
    INDEX 01 27:22:00
    TRACK 14 AUDIO
    PERFORMER “Skeptical”
    TITLE “Umbra”
    INDEX 01 29:13:00
    TRACK 15 AUDIO
    PERFORMER “Serum & Serum”
    TITLE “Magnum”
    INDEX 01 31:05:00
    TRACK 16 AUDIO
    PERFORMER “Hyroglifics & Sustance”
    TITLE “Wobert”
    INDEX 01 33:42:00
    TRACK 17 AUDIO
    PERFORMER “Dub Phizix”
    TITLE “Game Over”
    INDEX 01 36:06:00
    TRACK 18 AUDIO
    PERFORMER “Chimpo”
    TITLE “Shredders Suite”
    INDEX 01 38:32:00
    TRACK 19 AUDIO
    PERFORMER “Anile”
    TITLE “Untitled 24”
    INDEX 01 40:01:00
    TRACK 20 AUDIO
    PERFORMER “The Sauce & Fox”
    TITLE “Everything Boss”
    INDEX 01 41:53:00
    TRACK 21 AUDIO
    PERFORMER “Bou & Upgrade”
    TITLE “Creeper”
    INDEX 01 44:52:00
    TRACK 22 AUDIO
    PERFORMER “Waeys”
    TITLE “Ultimatum (Levela Remix)”
    INDEX 01 47:06:00
    TRACK 23 AUDIO
    PERFORMER “Skeptical & Skeptical”
    TITLE “Smog”
    INDEX 01 49:19:00
    TRACK 24 AUDIO
    PERFORMER “WTR”
    TITLE “Abyss”
    INDEX 01 52:18:00
    TRACK 25 AUDIO
    PERFORMER “Visages”
    TITLE “Yalda”
    INDEX 01 54:10:00
    TRACK 26 AUDIO
    PERFORMER “Taxman”
    TITLE “Made Of Stone (VIP)”
    INDEX 01 57:31:00
    TRACK 27 AUDIO
    PERFORMER “Workforce”
    TITLE “Maudlin”
    INDEX 01 59:22:00
    TRACK 28 AUDIO
    PERFORMER “Walk:r”
    TITLE “Cold Air”
    INDEX 01 62:15:00
    TRACK 29 AUDIO
    PERFORMER “Mark System”
    TITLE “Wanna Dance”
    INDEX 01 65:19:00
    TRACK 30 AUDIO
    PERFORMER “Blocks & Escher”
    TITLE “Something Borrowed (VIP)”
    INDEX 01 70:17:00
    TRACK 31 AUDIO
    PERFORMER “Bungle”
    TITLE “Aura”
    INDEX 01 77:17:00
    TRACK 32 AUDIO
    PERFORMER “Instra:mental”
    TITLE “Springs”
    INDEX 01 81:20:00
    TRACK 33 AUDIO
    PERFORMER “Need for Mirrors”
    TITLE “WITHOUT U”
    INDEX 01 83:56:00
    TRACK 34 AUDIO
    PERFORMER “Kid Drama”
    TITLE “Aki”
    INDEX 01 88:24:00
    TRACK 35 AUDIO
    PERFORMER “Vril & Rødhåd”
    TITLE “ENNOCH”
    INDEX 01 92:30:00
    TRACK 36 AUDIO
    PERFORMER “Andrea & Andrea”
    TITLE “Hera”
    INDEX 01 95:14:00
    TRACK 37 AUDIO
    PERFORMER “Shed & Shed”
    TITLE “Try”
    INDEX 01 98:47:00
    TRACK 38 AUDIO
    PERFORMER “Ivy Lab & DRS”
    TITLE “Teacup”
    INDEX 01 100:14:00
    TRACK 39 AUDIO
    PERFORMER “Calibre”
    TITLE “Bad”
    INDEX 01 103:09:00
    TRACK 40 AUDIO
    PERFORMER “Stenny”
    TITLE “Sensitive Habitat”
    INDEX 01 106:14:00
    TRACK 41 AUDIO
    PERFORMER “dBridge & Forest Drive West”
    TITLE “Van Mij”
    INDEX 01 109:30:00
    TRACK 42 AUDIO
    PERFORMER “John Tejada”
    TITLE “Winter Skies”
    INDEX 01 113:02:00
    TRACK 43 AUDIO
    PERFORMER “Skee Mask”
    TITLE “Mbass123 Excerpt”
    INDEX 01 116:04:00

Leave a Comment

Your email address will not be published. Required fields are marked *